国语动漫论坛

 找回密码
 立即注册
搜索
查看: 29|回复: 0

[BT-原盘] 鬼灭之刃.Kimetsu.no.Yaiba.2020.1080p.BluRay.AVC.LPCM.2.0.24bit

[复制链接]
  • TA的每日心情
    擦汗
    2020-11-9 14:51
  • 签到天数: 121 天

    [LV.7]常住居民III

    112

    主题

    228

    帖子

    1028

    积分

    超级版主

    Rank: 8Rank: 8

    积分
    1028
    发表于 2020-11-9 15:38:25 | 显示全部楼层 |阅读模式


    鬼灭之刃.Kimetsu.no.Yaiba.2020.1080p.BluRay.AVC.LPCM.2.0.24bit
    鬼灭之刃 鬼滅の刃 (2019)
    鬼滅の刃导演: 外崎春雄 / 细川秀树 / 间岛崇宽 / 伊藤祐毅 / 野中卓也 / 五味伸介 / 宫原秀二 / 高桥贤
    编剧: 吾峠呼世晴(原作) / ufotable
    主演: 花江夏树 / 鬼头明里 / 下野纮 / 松冈祯丞 / 冈本信彦 / 更多...
    类型: 动画 / 奇幻
    官方网站: kimetsu.com
    制片国家/地区: 日本
    语言: 日语
    首播: 2019-04-06(日本)
    集数: 26
    单集片长: 24分钟
    又名: 灭鬼之刃 / 鬼灭之刃 龟门炭治郎 立志篇 / Demon Slayer / Kimetsu no Yaiba
    IMDb链接: tt9335498

    鬼灭之刃的剧情简介 · · · · · ·
      电视动画《鬼灭之刃》改编自吾峠呼世晴创作的同名漫画,于2018年6月4日在《周刊少年JUMP》2018年6月第27号上发表了动画化的消息。动画由ufotable负责制作。 于2019年4月放送开始。
      日本大正时期,那是一个吃人的恶鬼横行的世界,一名家人被鬼杀死,妹妹也变成了鬼的主人公炭治郎,在猎鬼人的指引下,成为了鬼猎人组织“鬼杀队”的一员,为了让妹妹祢豆子变回人类,为了讨伐杀害家人的恶鬼,为了斩断悲伤的连锁而展开了战斗。

    DISC INFO:

    光盘标题:           Kimetsu no Yaiba
    光盘名称:           [BDMV][190731][Kimetsu no Yaiba]
    光盘大小:           16,364,889,542 bytes
    保护机制:           AACS
    BD信息:           0.7.5.5

    PLAYLIST REPORT:

    Name:                   00002.MPLS
    Length:                 0:47:31.181 (h:m:s.ms)
    Size:                   0 bytes
    Total Bitrate:          0.00 Mbps

    VIDEO:

    Codec                   Bitrate             Description     
    -----                   -------             -----------     
    MPEG-4 AVC Video        0 kbps              1080p / 23.976 fps / 16:9 / High Profile 4.1

    AUDIO:

    Codec                           Language        Bitrate         Description     
    -----                           --------        -------         -----------     
    LPCM Audio                      Japanese        2304 kbps       2.0 / 48 kHz /  2304 kbps / 24-bit
    LPCM Audio                      Japanese        2304 kbps       2.0 / 48 kHz /  2304 kbps / 24-bit

    文件:

    Name            Time In         时长              Size            Total Bitrate   
    ----            -------         ------          ----            -------------   
    00004.M2TS      0:00:00.000     0:23:41.086     0               0               
    00005.M2TS      0:23:41.086     0:23:41.086     0               0               
    00006.M2TS      0:47:22.172     0:00:09.009     0               0  

    下载请使用:BT客户端、迅雷、115网盘、百度网盘
    文件大小:197.37GB
    BT下载

    游客,如果您要查看本帖隐藏内容请回复


    本帖子中包含更多资源

    您需要 登录 才可以下载或查看,没有帐号?立即注册

    x

    评分

    参与人数 1威望 +30 番茄币 +300 贡献 +30 收起 理由
    admin + 30 + 300 + 30 很给力!

    查看全部评分

    回复

    使用道具 举报

    您需要登录后才可以回帖 登录 | 立即注册

    本版积分规则



    手机版|小黑屋|cnanime.org |网站地图

    GMT+8, 2020-11-26 12:34 , Processed in 0.129727 second(s), 28 queries .

    Powered by cnanime-Discuz! X3.4

    © 2019 cnanime.org

    快速回复 返回顶部 返回列表