国语动漫论坛

 找回密码
 立即注册
搜索
查看: 14|回复: 0

[蓝光REMUX] 我不是药神.2018.CHINESE.1080p.BluRay.REMUX.AVC.DTS-HD.MA.TrueHD.7.1.Atmos

[复制链接]
  • TA的每日心情

    4 天前
  • 签到天数: 110 天

    [LV.6]常住居民II

    113

    主题

    217

    帖子

    869

    积分

    超级版主

    Rank: 8Rank: 8

    积分
    869
    发表于 6 天前 | 显示全部楼层 |阅读模式


    我不是药神.Dying.to.Survive.2018.CHINESE.1080p.BluRay.REMUX.AVC.DTS-HD.MA.TrueHD.7.1.Atmos

    译  名 Drug Dealer / Dying to Survive / 中国药神 / 印度药商 / 印度药神 / 生命之路
    片  名 我不是药神
    年  代 2018
    产  地 中国大陆
    类  别 剧情 / 喜剧
    语  言 汉语普通话 / 英语 / 上海话 / 印地语
    上映日期 2018-06-30(大规模点映) / 2018-07-05(中国大陆)
    IMDb评分  8.1/10 from 2930 users
    IMDb链接  http://www.imdb.com/title/tt7362036
    豆瓣评分 9.0/10 from 1163545 users
    豆瓣链接 https://movie.douban.com/subject/26752088/
    片  长 117分钟
    导  演 文牧野 Muye Wen
    编  剧 韩家女 Jianü Han / 钟伟 Wei Zhong / 文牧野 Muye Wen
    主  演 徐峥 Zheng Xu
          王传君 Chuanjun Wang
          周一围 Yiwei Zhou
          谭卓 Zhuo Tan
          章宇 Yu Zhang
          杨新鸣 Xinming Yang
          王佳佳 Jiajia Wang
          王砚辉 Yanhui Wang
          贾晨飞 Chenfei Jia
          龚蓓苾 Beibi Gong
          宁浩 Hao Ning
          李乃文 Naiwen Li
          岳小军 Xiaojun Yue
          苇青 Qing Wei
          富冠铭 Guanming Fu
          巴拉特·巴蒂 Bharat Bhatia
          喜利图 Keith Shillitoe
          张海艳 Haiyan Zhang
          朱耕佑 Gengyou Zhu


    标  签 人性 | 社会 | 真实事件改编 | 生命 | 中国大陆 | 剧情 | 黑色幽默 | 药

    简  介  

      普通中年男子程勇(徐峥 饰)经营着一家保健品店,失意又失婚。不速之客吕受益(王传君 饰)的到来,让他开辟了一条去印度买药做“代购”的新事业,虽然困难重重,但他在这条“买药之路”上发现了商机,一发不可收拾地做起了治疗慢粒白血病的印度仿制药独家代理商。赚钱的同时,他也认识了几个病患及家属,为救女儿被迫做舞女的思慧(谭卓 饰)、说一口流利“神父腔”英语的刘牧师(杨新鸣 饰),以及脾气暴烈的“黄毛”(章宇 饰),几个人合伙做起了生意,利润倍增的同时也危机四伏。程勇昔日的小舅子曹警官(周一围 饰)奉命调查仿制药的源头,假药贩子张长林(王砚辉 饰)和瑞士正牌医药代表(李乃文 饰)也对其虎视眈眈,生意逐渐变成了一场关于救赎的拉锯战。
    本片改编自慢粒白血病患者陆勇代购抗癌药的真实事迹。

    获奖情况

      第55届台北金马影展(2018)
      金马奖 最佳剧情片(提名)
      金马奖 最佳男主角 徐峥
      金马奖 最佳男配角(提名) 章宇
      金马奖 最佳原著剧本 韩家女 / 钟伟 / 文牧野
      金马奖 最佳新导演 文牧野
      金马奖 最佳造型设计(提名) 李淼
      金马奖 最佳剪辑(提名) 朱琳

      第38届香港电影金像奖(2019)
      最佳两岸华语电影

      第13届亚洲电影大奖(2019)
      最佳电影(提名)
      最佳男主角(提名) 徐峥
      最佳男配角 章宇
      最佳编剧(提名) 韩家女 / 钟伟 / 文牧野

      第14届中国长春电影节(2018)
      金鹿奖 最佳华语故事片
      金鹿奖 最佳编剧 韩家女 / 钟伟 / 文牧野
      金鹿奖 最佳男主角 徐峥
      金鹿奖 最佳男配角 王传君

      第26届北京大妹生电影节(2019)
      最佳导演奖 文牧野
      最佳男演员奖 徐峥
      最佳新人奖 章宇

      第5届豆瓣电影年度榜单(2018)
      评分最高的华语电影
      最受关注的院线电影
      评分最高的喜剧片

    影片截图:



    影片信息:

    Video
    ID                                       : 1
    Format                                   : AVC
    Format/Info                              : Advanced Video Codec
    Format profile                           : High@L4
    Format settings                          : CABAC / 4 Ref Frames
    Format settings, CABAC                   : Yes
    Format settings, Reference frames        : 4 frames
    Codec ID                                 : V_MPEG4/ISO/AVC
    Duration                                 : 1 h 56 min
    Bit rate mode                            : Variable
    Bit rate                                 : 26.3 Mb/s
    Maximum bit rate                         : 30.0 Mb/s
    Width                                    : 1 920 pixels
    Height                                   : 1 080 pixels
    Display aspect ratio                     : 16:9
    Frame rate mode                          : Constant
    Frame rate                               : 24.000 FPS
    Color space                              : YUV
    Chroma subsampling                       : 4:2:0
    Bit depth                                : 8 bits
    Scan type                                : Progressive
    Bits/(Pixel*Frame)                       : 0.528
    Stream size                              : 21.3 GiB (70%)
    Title                                    : Dying.to.Survive.2018.CHINESE.1080p.BluRay.REMUX.AVC.DTS-HD.MA.TrueHD.7.1.Atmos-FGT
    Language                                 : English
    Default                                  : No
    Forced                                   : No

    Audio #1
    ID                                       : 2
    Format                                   : MLP FBA 16-ch
    Format/Info                              : Meridian Lossless Packing FBA with 16-channel presentation
    Commercial name                          : Dolby TrueHD with Dolby Atmos
    Codec ID                                 : A_TRUEHD
    Duration                                 : 1 h 56 min
    Bit rate mode                            : Variable
    Bit rate                                 : 3 959 kb/s
    Maximum bit rate                         : 6 912 kb/s
    Channel(s)                               : 8 channels
    Channel layout                           : L R C LFE Ls Rs Lb Rb
    Sampling rate                            : 48.0 kHz
    Frame rate                               : 1 200.000 FPS (40 SPF)
    Compression mode                         : Lossless
    Stream size                              : 3.22 GiB (11%)
    Title                                    : Dying.to.Survive.2018.CHINESE.1080p.BluRay.REMUX.AVC.DTS-HD.MA.TrueHD.7.1.Atmos-FGT
    Language                                 : Chinese
    Default                                  : Yes
    Forced                                   : No
    Number of dynamic objects                : 11
    Bed channel count                        : 1 channel
    Bed channel configuration                : LFE

    Audio #2
    ID                                       : 3
    Format                                   : DTS XLL
    Format/Info                              : Digital Theater Systems
    Commercial name                          : DTS-HD Master Audio
    Codec ID                                 : A_DTS
    Duration                                 : 1 h 56 min
    Bit rate mode                            : Variable
    Bit rate                                 : 4 000 kb/s
    Channel(s)                               : 8 channels
    Channel layout                           : C L R LFE Lb Rb Lss Rss
    Sampling rate                            : 48.0 kHz
    Frame rate                               : 93.750 FPS (512 SPF)
    Bit depth                                : 24 bits
    Compression mode                         : Lossless
    Stream size                              : 3.25 GiB (11%)
    Title                                    : Dying.to.Survive.2018.CHINESE.1080p.BluRay.REMUX.AVC.DTS-HD.MA.TrueHD.7.1.Atmos-FGT
    Language                                 : Chinese
    Default                                  : No
    Forced                                   : No

    Audio #3
    ID                                       : 4
    Format                                   : AC-3
    Format/Info                              : Audio Coding 3
    Commercial name                          : Dolby Digital
    Codec ID                                 : A_AC3
    Duration                                 : 1 h 56 min
    Bit rate mode                            : Constant
    Bit rate                                 : 640 kb/s
    Channel(s)                               : 6 channels
    Channel layout                           : L R C LFE Ls Rs
    Sampling rate                            : 48.0 kHz
    Frame rate                               : 31.250 FPS (1536 SPF)
    Bit depth                                : 16 bits
    Compression mode                         : Lossy
    Stream size                              : 532 MiB (2%)
    Title                                    : Dying.to.Survive.2018.CHINESE.1080p.BluRay.REMUX.AVC.DTS-HD.MA.TrueHD.7.1.Atmos-FGT
    Language                                 : Chinese
    Service kind                             : Complete Main
    Default                                  : No
    Forced                                   : No

    Audio #4
    ID                                       : 5
    Format                                   : DTS XLL
    Format/Info                              : Digital Theater Systems
    Commercial name                          : DTS-HD Master Audio
    Codec ID                                 : A_DTS
    Duration                                 : 1 h 56 min
    Bit rate mode                            : Variable
    Bit rate                                 : 2 334 kb/s
    Channel(s)                               : 6 channels
    Channel layout                           : C L R Ls Rs LFE
    Sampling rate                            : 48.0 kHz
    Frame rate                               : 93.750 FPS (512 SPF)
    Bit depth                                : 16 bits
    Compression mode                         : Lossless
    Stream size                              : 1.90 GiB (6%)
    Title                                    : Dying.to.Survive.2018.CHINESE.1080p.BluRay.REMUX.AVC.DTS-HD.MA.TrueHD.7.1.Atmos-FGT
    Language                                 : Chinese
    Default                                  : No
    Forced                                   : No

    Text #1
    ID                                       : 6
    Format                                   : UTF-8
    Codec ID                                 : S_TEXT/UTF8
    Codec ID/Info                            : UTF-8 Plain Text
    Duration                                 : 1 h 51 min
    Bit rate                                 : 48 b/s
    Count of elements                        : 1624
    Stream size                              : 40.1 KiB (0%)
    Title                                    : English-SRT
    Language                                 : English
    Default                                  : Yes
    Forced                                   : Yes

    Text #2
    ID                                       : 7
    Format                                   : PGS
    Muxing mode                              : zlib
    Codec ID                                 : S_HDMV/PGS
    Codec ID/Info                            : Picture based subtitle format used on BDs/HD-DVDs
    Duration                                 : 1 h 51 min
    Bit rate                                 : 32.5 kb/s
    Count of elements                        : 2726
    Stream size                              : 26.0 MiB (0%)
    Title                                    : English-PGS
    Language                                 : English
    Default                                  : No
    Forced                                   : No

    Text #3
    ID                                       : 8
    Format                                   : PGS
    Muxing mode                              : zlib
    Codec ID                                 : S_HDMV/PGS
    Codec ID/Info                            : Picture based subtitle format used on BDs/HD-DVDs
    Duration                                 : 1 h 51 min
    Bit rate                                 : 22.1 kb/s
    Count of elements                        : 2710
    Stream size                              : 17.7 MiB (0%)
    Title                                    : Chinese-PGS
    Language                                 : Chinese
    Default                                  : No
    Forced                                   : No

    Menu
    00:00:00.000                             : en:Chapter 01
    00:08:56.166                             : en:Chapter 02
    00:17:27.958                             : en:Chapter 03
    00:28:10.583                             : en:Chapter 04
    00:37:16.875                             : en:Chapter 05
    00:51:39.083                             : en:Chapter 06
    01:03:58.208                             : en:Chapter 07
    01:11:11.750                             : en:Chapter 08
    01:20:46.000                             : en:Chapter 09
    01:32:55.208                             : en:Chapter 10
    01:44:34.500                             : en:Chapter 11
    01:51:10.375                             : en:Chapter 12

    下载请使用:BT客户端、迅雷、115网盘、百度网盘
    文件大小:30.31GB
    国配:有


    蓝光REMUX-BT种子:
    游客,如果您要查看本帖隐藏内容请回复





    本帖子中包含更多资源

    您需要 登录 才可以下载或查看,没有帐号?立即注册

    x

    评分

    参与人数 1威望 +100 番茄币 +300 贡献 +10 收起 理由
    次世代 + 100 + 300 + 10 很给力!

    查看全部评分

    回复

    使用道具 举报

    您需要登录后才可以回帖 登录 | 立即注册

    本版积分规则



    小黑屋|cnanime.org |网站地图

    GMT+8, 2019-11-16 02:51 , Processed in 0.093151 second(s), 25 queries .

    Powered by cnanime-Discuz! X3.4

    © 2019 cnanime.org

    快速回复 返回顶部 返回列表