国语动漫论坛

 找回密码
 立即注册
搜索
查看: 25|回复: 0

[蓝光原盘] 超能陆战队.Big.Hero.6.2014.1080p.BluRay.AVC.DTS-HD.MA.7.1.24bit

[复制链接]
  • TA的每日心情
    擦汗
    前天 21:47
  • 签到天数: 109 天

    [LV.6]常住居民II

    113

    主题

    216

    帖子

    869

    积分

    超级版主

    Rank: 8Rank: 8

    积分
    869
    发表于 2019-11-1 17:05:40 | 显示全部楼层 |阅读模式
    本帖最后由 一海 于 2019-11-1 17:05 编辑



    超能陆战队.Big.Hero.6.2014.1080p.BluRay.AVC.DTS-HD.MA.7.1.24bit

    导演: 唐·霍尔 / 克里斯·威廉姆斯
    编剧: 乔丹·罗伯茨 / 丹尼尔·吉尔森 / 罗伯特·L·贝尔德
    主演: 斯科特·安第斯 / 瑞恩·波特 / 丹尼尔·海尼 / T·J·米勒 / 杰米·钟 / 小达蒙·韦恩斯 / 珍尼希斯·罗德里格兹 / 詹姆斯·克伦威尔 / 艾伦·图代克 / 玛娅·鲁道夫 / 亚布拉哈姆·本鲁比 / 凯蒂·洛斯 / 比利·布什 / 丹尼尔·吉尔森 / 保罗·布里格斯
    类型: 喜剧 / 动作 / 科幻 / 动画 / 冒险
    官方网站: www.disneyanimation.com/projects/bighero6
    制片国家/地区: 美国
    语言: 英语
    上映日期: 2015-02-28(中国大陆) / 2014-10-23(东京电影节) / 2014-11-07(美国)
    片长: 102分钟
    又名: 大英雄联盟(港) / 大英雄天团(台) / 六大英雄 / (●—●)
    IMDb链接: tt2245084

    超能陆战队的剧情简介 · · · · · ·

      未来世界的超级都市旧京山(San Fransokyo),热爱发明创造的天才少年小宏,在哥哥泰迪的鼓励下参加了罗伯特·卡拉汉教授主持的理工学院机器人专业的入学大赛。他凭借神奇的微型磁力机器人赢得观众、参赛者以及考官的一致好评,谁知突如其来的灾难却将小宏的梦想和人生毁于一旦。大火烧毁了展示会场,而哥哥为了救出受困的卡拉汉教授命丧火场。身心饱受创伤的小宏闭门不出,哥哥生前留下的治疗型机器人大白则成为安慰他的唯一伙伴。原以为微型机器人也毁于火灾,谁知小宏和大白竟意外发现有人在某座废弃工厂内大批量地生产他的发明。
      稍后哥哥的朋友们弗雷德等人也加入进来,他们穿上小宏发明的超级战士战斗装备,和怀有险恶阴谋的神秘对手展开较量……

    影片截图:



    影片信息:

    Disc Title:     Big.Hero.6.2014.1080p.BluRay.AVC.DTS-HD.MA.7.1.24bit
    Disc Size:      36,690,704,564 bytes
    Protection:     AACS
    BD-Java:        Yes
    BDInfo:         0.5.8

    PLAYLIST REPORT:

    Name:                   00800.MPLS
    Length:                 1:41:52.731 (h:m:s.ms)
    Size:                   27,203,346,432 bytes
    Total Bitrate:          35.60 Mbps

    VIDEO:

    Codec                   Bitrate             Description
    -----                   -------             -----------
    MPEG-4 AVC Video        27033 kbps          1080p / 23.976 fps / 16:9 / High Profile 4.1

    AUDIO:

    Codec                           Language        Bitrate         Description
    -----                           --------        -------         -----------
    DTS-HD Master Audio             English         4553 kbps       7.1 / 48 kHz / 4553 kbps / 24-bit (DTS Core: 5.1 / 48 kHz / 1509 kbps / 24-bit)
    Dolby Digital Audio             English         320 kbps        2.0 / 48 kHz / 320 kbps / Dolby Surround
    Dolby Digital Audio             French          640 kbps        5.1 / 48 kHz / 640 kbps
    Dolby Digital Audio             Spanish         640 kbps        5.1 / 48 kHz / 640 kbps

    SUBTITLES:

    Codec                           Language        Bitrate         Description
    -----                           --------        -------         -----------
    Presentation Graphics           English         39.140 kbps
    Presentation Graphics           English         30.001 kbps
    Presentation Graphics           French          30.694 kbps
    Presentation Graphics           Spanish         30.913 kbps
    Presentation Graphics           French          0.025 kbps

    FILES:

    Name            Time In         Length          Size            Total Bitrate
    ----            -------         ------          ----            -------------
    00300.M2TS      0:00:00.000     0:51:38.804     13,658,744,832  35,262
    00306.M2TS      0:51:38.804     0:00:15.640     68,794,368      35,188
    00307.M2TS      0:51:54.444     0:39:58.312     10,729,494,528  35,790
    00308.M2TS      1:31:52.757     0:00:17.726     84,793,344      38,268
    00309.M2TS      1:32:10.483     0:09:42.248     2,661,519,360   36,569

    下载请使用:BT客户端、迅雷、115网盘、百度网盘
    文件大小:33.92GB

    BT种子:
    蓝光原盘\蓝光REMUX
    游客,如果您要查看本帖隐藏内容请回复








    本帖子中包含更多资源

    您需要 登录 才可以下载或查看,没有帐号?立即注册

    x

    评分

    参与人数 1威望 +5 番茄币 +100 贡献 +5 收起 理由
    次世代 + 5 + 100 + 5 很给力!

    查看全部评分

    回复

    使用道具 举报

    您需要登录后才可以回帖 登录 | 立即注册

    本版积分规则



    小黑屋|cnanime.org |网站地图

    GMT+8, 2019-11-12 04:57 , Processed in 0.091872 second(s), 25 queries .

    Powered by cnanime-Discuz! X3.4

    © 2019 cnanime.org

    快速回复 返回顶部 返回列表